#TITLE:Pride of Glory;
#SUBTITLE:Expi3nze;
#ARTIST:Nana Mizuki;
#TITLETRANSLIT:;
#SUBTITLETRANSLIT:;
#ARTISTTRANSLIT:;
#CREDIT:;
#BANNER:bn.png;
#BACKGROUND:bg.png;
#LYRICSPATH:;
#CDTITLE:;
#MUSIC:Pride of Glory.mp3;
#OFFSET:-0.285;
#SAMPLESTART:112.580;
#SAMPLELENGTH:12.000;
#SELECTABLE:YES;
#BPMS:0.000=148.003,1.000=147.995,2.000=148.003,4.000=147.995,5.000=37.000,6.000=74.002,7.000=73.999,10.000=74.002,11.000=73.999,14.000=148.003,16.000=147.995,17.000=148.003,19.000=147.995,20.000=148.003,21.000=147.995,22.000=148.003,24.000=147.995,25.000=148.003,27.000=147.995,28.000=148.003,29.000=147.995,30.000=148.003,32.000=147.995,33.000=148.003,35.000=147.995,36.000=148.003,37.000=147.995,38.000=148.003,40.000=147.995,41.000=148.003,42.000=296.039,42.500=592.211,43.000=148.020,43.250=296.017,44.000=592.211,44.500=148.020,44.750=296.106,45.000=592.211,45.500=148.020,45.750=296.106,46.000=295.973,46.500=592.211,47.000=148.020,47.250=296.017,48.000=592.211,48.500=148.020,48.750=296.106,49.000=592.211,49.500=148.020,49.750=296.106,50.000=148.003,52.000=147.995,53.000=148.003,55.000=147.995,56.000=148.003,57.000=147.995,58.000=148.003,60.000=147.995,61.000=148.003,63.000=147.995,64.000=148.003,65.000=147.995,66.000=148.003,68.000=147.995,69.000=148.003,70.000=147.995,71.000=148.003,73.000=147.995,74.000=148.003,76.000=147.995,77.000=148.003,78.000=147.995,79.000=148.003,81.000=147.995,82.000=148.003,84.000=147.995,85.000=148.003,86.000=147.995,87.000=148.003,89.000=147.995,90.000=148.003,92.000=147.995,93.000=148.003,94.000=147.995,95.000=148.003,97.000=147.995,98.000=148.003,99.000=147.995,100.000=148.003,102.000=147.995,103.000=148.003,105.000=147.995,106.000=148.003,107.000=147.995,108.000=148.003,110.000=147.995,111.000=148.003,112.000=147.995,113.000=148.003,115.000=147.995,116.000=148.003,118.000=147.995,119.000=148.003,120.000=147.995,121.000=148.003,123.000=147.995,124.000=148.003,126.000=147.995,127.000=148.003,128.000=147.995,129.000=148.003,131.000=147.995,132.000=148.003,134.000=147.995,135.000=148.003,136.000=147.995,137.000=148.003,139.000=147.995,140.000=148.003,142.000=147.995,143.000=148.003,144.000=147.995,145.000=148.003,146.000=296.039,146.500=592.211,147.000=148.020,147.250=296.017,148.000=592.211,148.500=148.020,148.750=296.106,149.000=592.211,149.500=148.020,149.750=296.106,150.000=295.973,150.500=592.211,151.000=148.020,151.250=296.017,152.000=592.211,152.500=148.020,152.750=296.106,153.000=592.211,153.500=148.020,153.750=296.106,154.000=148.003,156.000=147.995,157.000=148.003,158.000=147.995,159.000=148.003,161.000=147.995,162.000=148.003,164.000=147.995,165.000=148.003,166.000=147.995,167.000=148.003,169.000=147.995,170.000=148.003,172.000=147.995,173.000=148.003,174.000=147.995,175.000=148.003,177.000=147.995,178.000=148.003,180.000=147.995,181.000=148.003,182.000=592.211,182.500=148.020,182.750=296.106,183.000=592.211,183.500=148.020,183.750=296.106,184.000=592.211,184.500=148.020,184.750=296.106,185.000=592.211,185.500=148.020,185.750=296.106,186.000=592.211,186.500=148.020,186.750=296.106,187.000=592.211,187.500=148.020,187.750=296.106,188.000=592.211,188.500=148.020,188.750=296.106,189.000=592.211,189.500=148.020,189.750=296.106,190.000=148.003,192.000=147.995,193.000=148.003,194.000=147.995,195.000=148.003,197.000=147.995,198.000=148.003,200.000=147.995,201.000=148.003,202.000=592.211,202.500=148.020,202.750=296.106,203.000=148.003,205.000=592.211,205.500=148.020,205.750=296.106,206.000=592.211,206.500=148.020,206.750=296.106,207.000=148.003,209.000=147.995,210.000=592.211,210.500=148.020,210.750=296.106,211.000=592.211,211.500=148.020,211.750=296.106,212.000=148.003,214.000=147.995,215.000=592.211,215.500=148.020,215.750=296.106,216.000=592.211,216.500=148.020,216.750=296.106,217.000=148.003,219.000=592.079,220.000=148.003,220.500=296.039,221.000=592.211,221.500=148.020,221.750=296.106,222.000=592.211,222.500=148.020,222.750=296.106,223.000=592.211,223.500=148.020,223.750=296.106,224.000=148.003,226.000=147.987,226.500=592.211,227.000=148.020,227.250=296.106,227.500=592.211,228.000=148.020,228.250=296.106,228.500=148.003,230.000=147.995,231.000=148.003,231.500=592.211,232.000=148.020,232.250=296.106,232.500=592.211,233.000=148.020,233.250=296.106,233.500=148.003,235.000=147.995,236.000=148.003,236.500=592.211,237.000=148.020,237.250=296.106,237.500=592.211,238.000=148.020,238.250=296.106,238.500=148.003,240.500=592.211,241.000=148.020,241.250=296.106,241.500=592.211,242.000=148.020,242.250=296.106,242.500=592.211,243.000=148.020,243.250=296.106,243.500=592.211,244.000=148.020,244.250=296.106,244.500=592.211,245.000=148.020,245.250=296.106,245.500=148.003,247.000=147.995,248.000=148.003,250.000=147.995,251.000=148.003,252.000=147.995,253.000=148.003,255.000=147.995,256.000=148.003,258.000=147.995,259.000=148.003,260.000=147.995,261.000=148.003,263.000=147.995,264.000=148.003,265.000=147.995,266.000=148.003,268.000=147.995,269.000=148.003,271.000=147.995,272.000=148.003,273.000=147.995,274.000=148.003,276.000=147.995,277.000=148.003,277.500=296.039,278.000=591.946,278.500=148.020,278.750=295.973,279.000=296.039,279.500=591.946,280.000=148.020,280.250=295.973,280.500=591.946,281.000=148.020,281.250=296.017,282.000=591.946,282.500=148.020,282.750=295.973,283.000=296.039,283.500=591.946,284.000=148.020,284.250=295.973,284.500=591.946,285.000=148.020,285.250=296.017,286.000=591.946,286.500=148.020,286.750=295.973,287.000=296.039,287.500=591.946,288.000=148.020,288.250=295.973,288.500=591.946,289.000=148.020,289.250=296.017,290.000=591.946,290.500=148.020,290.750=295.973,291.000=296.039,291.500=591.946,292.000=148.020,292.250=295.973,292.500=591.946,293.000=148.020,293.250=295.973,293.500=37.000,294.000=37.001,294.500=148.003,296.000=147.995,297.000=148.003,299.000=147.995,300.000=148.003,301.000=147.995,302.000=148.003,304.000=147.995,305.000=148.003,307.000=147.995,308.000=148.003,308.500=591.946,309.000=148.020,309.250=295.973,309.500=591.946,310.000=148.020,310.250=295.973,310.500=591.946,311.000=148.020,311.250=295.973,311.500=591.946,312.000=148.020,312.250=295.973,312.500=148.003,314.000=147.995,315.000=148.003,317.000=147.995,318.000=148.003,319.000=147.995,320.000=148.003,322.000=147.995,323.000=148.003,325.000=147.995,326.000=148.003,326.500=591.946,327.000=148.020,327.250=295.973,327.500=591.946,328.000=148.020,328.250=295.973,328.500=591.946,329.000=148.020,329.250=295.973,329.500=591.946,330.000=148.020,330.250=295.973,330.500=148.003,332.000=147.995,333.000=148.003,335.000=147.995,336.000=148.003,337.000=147.995,338.000=148.003,340.000=147.995,341.000=148.003,343.000=147.995,344.000=148.003,344.500=591.946,345.000=148.020,345.250=295.973,345.500=591.946,346.000=148.020,346.250=295.973,346.500=591.946,347.000=148.020,347.250=295.973,347.500=591.946,348.000=148.020,348.250=295.973,348.500=148.003,350.000=147.995,351.000=148.003,353.000=147.995,354.000=148.003,355.000=147.995,356.000=148.003,358.000=147.995,359.000=148.003,359.500=591.946,360.000=148.020,360.250=295.973,360.500=591.946,361.000=148.020,361.250=295.973,361.500=148.003,362.500=591.946,363.000=148.020,363.250=295.973,363.500=591.946,364.000=148.020,364.250=295.973,364.500=591.946,365.000=148.020,365.250=295.973,365.500=591.946,366.000=148.020,366.250=296.017,367.000=295.973,367.500=591.946,368.000=148.020,368.250=295.973,368.500=148.003,370.000=147.995,371.000=148.003,372.000=591.946,372.500=148.020,372.750=295.973,373.000=591.946,373.500=148.020,373.750=295.973,374.000=591.946,374.500=148.020,374.750=295.973,375.000=296.006,376.000=591.946,376.500=148.020,376.750=295.973,377.000=591.946,377.500=148.020,377.750=295.973,378.000=591.946,378.500=148.020,378.750=295.973,379.000=591.946,379.500=148.020,379.750=295.973,380.000=591.946,380.500=148.020,380.750=295.973,381.000=296.039,381.500=591.946,382.000=148.020,382.250=296.017,383.000=591.946,383.500=148.020,383.750=295.973,384.000=591.946,384.500=148.020,384.750=295.973,385.000=296.039,385.500=591.946,386.000=148.020,386.250=296.017,387.000=591.946,387.500=148.020,387.750=295.973,388.000=74.002,388.250=147.998,389.000=148.003,391.000=147.995,392.000=148.003,394.000=147.995,395.000=148.003,396.000=147.995,397.000=148.003,399.000=147.995,400.000=148.003,402.000=147.998,402.750=592.211,403.000=591.682,403.250=148.020,403.500=295.973,403.750=592.211,404.000=591.682,404.250=148.020,404.500=295.973,404.750=592.211,405.000=591.682,405.250=148.020,405.500=295.973,405.750=148.020,406.000=147.995,407.000=148.003,409.000=147.995,410.000=148.003,411.000=147.995,412.000=148.003,414.000=147.995,415.000=148.003,416.000=147.995,417.000=148.020,417.250=591.946,417.750=148.020,418.000=296.017,418.750=592.211,419.000=591.682,419.250=148.020,419.500=296.039,420.000=295.973,420.250=591.946,420.750=148.020,421.000=295.973,421.250=591.946,421.750=148.020,422.000=296.017,422.750=592.211,423.000=591.682,423.250=148.020,423.500=296.039,424.000=295.973,424.250=591.946,424.750=148.020,425.000=295.973,425.250=74.002,425.500=296.039,426.000=591.946,426.500=148.020,426.750=295.973,427.000=296.039,427.500=591.946,428.000=148.020,428.250=295.973,428.500=591.946,429.000=148.020,429.250=296.017,430.000=591.946,430.500=148.020,430.750=295.973,431.000=296.039,431.500=591.946,432.000=148.020,432.250=295.973,432.500=74.002,432.750=295.973,433.000=296.106,433.250=591.946,433.750=148.020,434.000=296.017,434.750=592.211,435.000=591.682,435.250=148.020,435.500=295.973,435.750=592.211,436.000=591.682,436.250=148.020,436.500=296.039,437.000=295.973,437.250=591.946,437.750=148.020,438.000=296.017,438.750=592.211,439.000=591.682,439.250=148.020,439.500=295.973,439.750=74.002,440.000=296.006,441.000=591.946,441.500=148.020,441.750=295.973,442.000=591.946,442.500=148.020,442.750=295.973,443.000=148.003,444.000=147.995,445.000=148.003,447.000=147.995,448.000=148.003,450.000=147.995,451.000=148.003,452.000=147.995,453.000=148.003,455.000=147.995,456.000=148.003,458.000=147.995,459.000=148.003,460.000=147.995;
#STOPS:;
#BGCHANGES:;
// cache tags:
#FIRSTBEAT:1.000;
#LASTBEAT:447.000;
#SONGFILENAME:Songs/SDO pack 2/Pride of Glory-Nana/Pride of Glory.sm;
#HASMUSIC:1;
#HASBANNER:1;
#MUSICLENGTH:167.888;
// end cache tags

//---------------dance-single - ----------------
#NOTES:
     dance-single:
     :
     Hard:
     17:
     1.000,1.000,1.000,0.167,0.646,805.000,367.000,28.000,0.000,33.000:
0000
0002
0003
2000
,
0000
0000
0000
0000
0000
0000
3000
0000
0220
0000
0000
0000
0000
0000
0000
0330
1001
1000
0010
0100
0001
0100
0010
1000
0100
0010
1000
0001
0100
0010
0100
1000
,
0011
0100
0010
1000
0100
1000
0010
0001
1000
0100
0001
0010
0100
1000
0100
0010
1100
0010
0100
0010
0100
0001
0010
0001
1000
0010
0100
0010
0100
0001
0010
1000
,
0011
0010
0100
1000
0001
0010
0100
1000
0011
0010
0100
1000
0011
0010
0100
1000
0001
0000
0000
0000
0000
0000
0000
0000
1100
0000
0000
0000
0000
0000
0000
0000
,
0001
1100
0001
1100
,
1001
0000
1000
1001
1000
0000
0011
0000
,
1000
0011
1000
0011
,
1000
1000
0011
1000
0001
0000
1001
0000
,
1000
0000
0000
0000
1001
0000
0000
0000
1000
0100
0010
0001
0010
0100
1000
0001
,
0110
0000
1001
0110
0001
0000
1001
0000
,
1000
0000
0000
0000
0001
0000
0001
0001
1100
0000
0000
0000
0000
0000
1100
0000
,
0000
0000
0011
0000
0011
0000
0000
0011
,
0000
1100
1001
1001
,
1100
0000
0011
0000
1001
0110
0110
0100
,
0000
0010
0110
1001
0000
1100
1001
0001
,
0011
0000
1000
0000
1100
0000
1100
0000
0011
0000
0100
0010
0100
0010
1000
0000
,
1000
0001
1001
0000
0110
0000
0110
1001
,
1000
0000
0011
0000
1001
0000
1000
1001
,
0001
0000
1100
1000
1001
0000
1000
1010
,
0101
0000
1010
0000
0101
0000
1010
0000
0001
0000
0100
1000
0001
1000
0100
0010
,
1100
0100
0011
0001
1100
0000
0010
0010
1001
0000
0100
0100
1001
0010
0100
0000
,
1001
0000
0001
0000
1001
0000
1000
1000
0010
0000
0100
0100
0011
0010
0100
0000
,
1000
0000
0001
0000
0011
0000
1000
1000
0101
0000
0001
0001
1100
0100
0010
0000
,
1000
0000
0001
0000
0011
0000
1000
1000
0101
0000
0001
0001
1100
1000
0010
0000
,
0100
0000
0010
0100
0011
0000
1000
1000
0101
0000
0100
0100
0011
0010
0100
0000
,
1010
0000
0101
0000
1010
0000
0101
0000
1010
0000
1000
1000
0011
0100
0100
0000
,
1010
0000
0101
0000
1010
0000
0101
0000
1010
0000
0010
0010
1100
0100
0010
0000
,
1100
0000
0011
0000
0011
0000
1001
0000
0110
0000
0100
0100
0010
0010
0100
0100
,
0010
0100
0010
0100
0011
0000
1000
1000
0012
0000
1000
0000
1000
0000
1010
0000
,
0100
0000
0000
0000
0010
0000
0000
0000
1100
0000
0000
0000
1000
0000
0000
0003
0210
0000
0000
0000
0000
0000
0001
0000
1000
0000
0000
0000
1001
0000
0000
0000
,
1000
0000
0000
0000
0000
0000
0000
0000
0001
0000
0000
0000
0011
0000
0000
0300
2001
0000
0000
0000
0101
0000
0000
0000
0100
0000
0000
0000
0101
0000
0000
3000
,
0021
0000
0000
0000
1100
0000
0000
0000
1100
0000
0000
0000
1000
0000
1000
0030
0102
0000
0000
0000
0000
0000
0000
0000
1100
0000
0000
0000
0000
0000
0000
0000
,
1010
0000
0000
0000
1000
0000
0000
0000
1010
0000
0000
0000
1000
0000
0000
0003
0120
0000
0000
0000
0000
0000
1000
0000
0001
0000
0000
0000
1001
0000
0000
0000
,
1000
0000
0000
0000
0000
0000
0000
0000
1100
0000
0000
0000
0000
0000
0000
0030
1200
0000
0000
0000
0000
0000
0001
0000
1000
0000
0000
0000
1001
0000
0000
0000
,
0001
0000
0000
0000
1000
0000
0000
0000
0001
0000
0000
0000
1000
0000
0000
0300
0012
0000
0000
0000
1000
0000
0000
0000
0010
0000
0000
0000
1000
0000
0000
0000
,
1000
0000
0000
0000
1010
0000
0000
0000
1100
0000
0000
0000
0010
0000
0000
0003
2100
0000
0000
0000
0000
0000
0000
0000
0011
0000
0000
0000
0000
0000
0000
0000
,
0021
0000
0000
0000
0001
0000
0000
0000
0001
0000
0000
0000
0100
0000
0100
3030
0101
0000
0000
0000
0000
0000
0000
0000
0000
0000
0000
0000
0101
0000
0000
0000
,
0000
0000
1010
0000
1010
0000
0000
0110
,
0000
0000
0110
0000
1010
0101
1010
0101
,
1001
0000
1001
0110
0110
0000
0110
0000
,
1001
0000
0000
0000
1000
0000
1001
0000
0011
0000
0000
1100
0001
0000
1100
0000
,
1001
0000
0000
1001
0000
0000
1001
0000
0221
0000
0000
0000
1001
0000
0000
0000
,
0001
0001
1331
1000
0001
0000
1001
0000
,
1000
0000
0000
0000
1001
0000
1000
1000
0101
0000
0000
0001
1000
0000
1001
0000
,
1001
0000
1001
0110
1010
0101
1010
0110
,
0100
0000
0110
0000
1001
0000
0110
0010
1001
0000
0000
0000
1000
0000
0000
0000
,
0001
0001
0100
0010
,
0110
0000
0110
0000
1010
0101
1010
0101
,
0100
0110
1001
0110
0100
0110
1001
0000
,
0011
0011
1100
1100
0000
1001
0011
1100
,
0101
0010
0101
0100
0011
0010
1100
0100
0011
0000
0000
0000
0010
0000
0100
0000
,
0010
0010
0011
0000
1100
0000
0110
0110
,
0100
0011
1100
1100
1001
0000
1001
0000
,
0011
0000
1100
0000
1001
0000
0110
0000
0010
0001
0100
0000
0110
0000
0000
0000
,
0110
0000
0110
0100
0010
1000
1001
0000
,
0000
0011
0011
0011
,
1001
0000
1000
0000
0101
0000
1000
0100
1000
0000
0011
0000
0000
0000
1100
0000
,
0000
0000
1100
0000
1001
0000
0110
0000
0110
0000
0100
0010
1000
0000
0011
0000
,
0000
0000
0011
0000
0000
0000
1100
0000
0101
0000
1010
0000
1001
0000
0100
0010
,
0100
0110
0000
0011
0000
1100
1001
0110
,
0100
0100
0010
0000
0000
0000
1000
0000
0000
0000
1001
0000
0000
0000
0101
0000
,
0000
0000
1010
0000
0000
0000
0110
0000
1000
0100
0001
0010
0001
0010
1000
0100
,
1000
0100
0010
0001
1000
0001
0010
0100
0001
0010
0100
1000
0001
1000
0100
0010
,
1000
0010
0100
0001
1000
0001
1010
0000
0000
0101
0000
0000
0110
0000
1001
0000
,
0000
0110
0000
0000
0100
0010
2001
0000
0000
0000
0011
0000
0000
0000
0001
0000
,
0100
0000
0000
3000
0011
0000
0000
0000
1100
0000
0000
0000
0002
0000
0000
0000
0000
0000
0000
0003
0100
0000
0000
0000
0110
0000
0000
0000
1020
0000
0000
0000
,
0000
0000
0000
0000
1100
0000
0000
0030
0100
0000
0001
0000
1200
0000
0000
0000
0010
0000
0001
0300
0000
0000
0000
0000
0010
0000
0100
0000
1001
0000
0000
0000
,
0000
0110
0000
0000
0110
0000
0001
0010
0100
1000
0100
1000
0001
0010
0100
1000
,
0010
0000
1000
0100
0010
0001
1000
0010
0100
0001
1000
0100
0001
0010
1100
0001
,
0010
0100
0011
0000
1000
0100
2001
0000
0000
0000
0000
0000
0011
0000
0000
0000
,
0000
0011
3000
0011
0000
0000
1100
0000
,
0000
1100
0000
1001
0000
0000
1001
0000
,
0000
0110
0000
0011
0000
0000
1100
0000
,
0000
0000
0000
0000
1100
0000
0000
0000
0000
0000
0000
0000
0220
0000
0000
0000
0000
0000
0000
0330
0001
0000
0000
0000
0000
0000
0000
0000
1100
0000
0000
0000
,
0000
0001
0000
1100
0000
0001
0001
1100
,
0000
0001
0000
1100
1001
0110
0000
0110
,
0000
0110
0000
1100
0000
0000
0011
0000
1001
0000
0010
0000
0100
0000
0011
0000
,
1000
1000
0001
0000
0000
0000
0001
0000
0000
0000
1000
0000
0000
0000
0001
0000
,
0000
1000
0000
0011
0000
1000
0000
0011
,
0001
1000
0001
1100
0010
1000
0001
1100
,
0010
0001
1000
0011
1000
0001
1000
0011
,
1100
0000
0000
0000
1002
0000
0000
0000
0000
0000
0010
0000
0000
0000
0000
0000
0010
0000
0000
0003
1200
0000
0000
0000
0000
0000
0000
0000
1000
0000
0000
0000
,
0000
0000
0000
0000
0001
0000
0000
0000
0000
0000
0000
0000
1000
0000
0000
0000
0000
0000
0000
0300
1001
0000
0000
0000
0110
0000
0000
0000
1001
0000
0000
0000
,
0110
1001
0000
1010
0101
0110
0000
0110
,
0000
0000
1001
0000
0000
0000
0001
0000
1001
0000
0110
0000
0000
0110
0000
0000
,
0110
0000
1001
0000
0000
0110
0000
0000
0110
0000
2001
0000
0000
0000
0011
0000
,
0000
0000
0000
0000
0110
0000
0000
0000
0000
0000
0000
3000
0110
0000
0000
0000
0000
0000
0000
0000
0011
0000
0000
0000
0000
0000
0000
0000
1100
0000
0000
0000
,
0000
1001
0000
0110
0110
0001
0000
0011
,
0100
0010
0110
0000
0000
1001
0000
0000
1001
0000
1000
0000
0000
0000
1100
0000
,
0001
1010
0101
1001
0110
0010
0110
1100
,
0000
0011
0000
1001
0000
1001
0000
1001
,
0000
1100
0000
0011
0000
0011
0000
0000
,
0000
1010
0101
1010
1001
0110
0010
0110
,
1001
0110
1100
0011
,
0000
1000
1000
0001
,
1000
0000
1001
0000
0000
1001
0000
0000
,
1001
0000
0110
0000
0000
0110
0000
0000
,
0110
1001
0000
1000
0000
0011
0000
0001
0000
1010
0000
0100
0010
1100
0000
1000
,
0000
0010
0100
1000
0001
1000
0001
0010
0100
0001
0000
0001
0000
1100
0000
0001
,
0000
0100
0010
1000
0000
1000
0100
0001
0010
0001
0010
0100
1000
1000
0100
0001
,
0010
1000
0100
0010
0001
0010
0100
1000
0001
1000
0000
1000
0000
0000
0000
0001
,
0000
0000
0000
1000
0000
0000
0000
1000
0000
0001
0000
1100
0000
0001
0000
1000
,
0000
0010
0100
0011
0000
0001
0000
1000
0100
0010
0001
0001
0010
0100
1000
0010
,
0000
0100
0100
0011
0000
1100
0000
0010
0000
0100
0010
1100
0000
0001
0010
1000
,
0001
0010
0100
1000
0000
1000
0000
0000
0000
0011
0000
0000
0000
0000
0000
0011
,
0000
0000
0000
0000
0000
1100
0000
0000
0000
1100
0000
0000
0000
0000
0000
0011
,
0000
0000
0000
0000
0000
1100
0011
0000
0000
0000
0000
0000
0011
0000
0000
0000
,
0000
1100
0000
1001
0000
0000
1001
0000
,
0000
0000
0110
1001
0000
0000
0000
0000
0000
1001
0000
0000
0000
0000
0000
1001
,
0000
0000
0000
0110
0000
0000
0000
0000
0000
0110
0000
0000
0000
0000
0000
0110
,
1000
0000
0001
2002
,
0000
0000
0000
3003
;
